FIFA Soccer APK | Sea Patrol | Mewtwo: Kakusei e no Prologue
extratorrent - A Fan Made Alternative Login   |   Register
Important Information
Registrations are open now
-------------------------------------

Please click here to register with Extratorrent2 to recieve latest updates, add bookmarks and to post comments.

Friends
Friends

1) ProxyFix

Extratorrent2 > Categories > TV > Formula 1 2018 Belgian Grand Prix HDTV x264 720 torrent


Browse TV torrents

Formula 1 2018 Belgian Grand Prix HDTV x264 720 torrent


Download torrent: Download Formula 1 2018 Belgian Grand Prix HDTV x264 720 torrent Magnet link Bookmark Torrent: Formula 1 2018 Belgian Grand Prix HDTV x264 720   Formula 1 2018 Belgian Grand Prix HDTV x264 720 torrent
Info hash: 177556F4ABF9B0436DA4E3E3FAB01353508B2ABB
Category: Categories > TV
Trackers:
View all torrent trackers >
Health:
 seeds: 47 ,  leechers: 3 |  Update >
Torrent language: English English
Total Size: 3.0 GB
Files List:
5    View torrent files >
Uploader:
HackRF
Torrent added: September 2, 2018, 5:19 pm
Tags: formula, 1, , racing, , 2018, , F1
Users rating: ---, not rated. please login to rate.

Download Formula 1 2018 Belgian Grand Prix HDTV x264 720 torrent



Torrent Description

Formula 1 2018

Belgian Grand Prix Race
Sunday, August 26 9:05 AM ESPN2
SkySports






General
Complete name : Formula 1 2018 Belgian Grand Prix HDTV x264 720.mkv
Format : Matroska
Format version : Version 4 / Version 2
File size : 3.03 GiB
Duration : 1 h 54 min
Overall bit rate : 3 785 kb/s
Encoded date : UTC 2018-08-26 15:26:43
Writing application : mkvmerge v15.0.0 ('Duel with the Devil') 64-bit
Writing library : libebml v1.3.5 + libmatroska v1.4.5

Video
ID : 1
Format : AVC
Format/Info : Advanced Video Codec
Format profile :
Format settings, CABAC : Yes
Format settings, RefFrames : 5 frames
Codec ID : V_MPEG4/ISO/AVC
Duration : 1 h 54 min
Bit rate : 3 398 kb/s
Width : 1 280 pixels
Height : 720 pixels
Display aspect ratio : 16:9
Frame rate mode : Constant
Frame rate : 59.940 (60000/1001) FPS
Color space : YUV
Chroma subsampling : 4:2:0
Bit depth : 8 bits
Scan type : Progressive
Bits/(Pixel*Frame) : 0.062
Stream size : 2.72 GiB (90%)
Writing library : x264 core 148 r2744 b97ae06
Default : Yes
Forced : No

Audio
ID : 2
Format : AC-3
Format/Info : Audio Coding 3
Format settings, Endianness : Big
Codec ID : A_AC3
Duration : 1 h 54 min
Bit rate mode : Constant
Bit rate : 384 kb/s
Channel(s) : 6 channels
Channel positions : Front: L C R, Side: L R, LFE
Sampling rate : 48.0 kHz
Frame rate : 31.250 FPS (1536 SPF)
Bit depth : 16 bits
Compression mode : Lossy
Stream size : 315 MiB (10%)
Language : new
Service kind : Complete Main
Default : Yes
Forced : No



Download Formula 1 2018 Belgian Grand Prix HDTV x264 720 torrent


Related Torrents


Comments   (please login to add your comment!)


Home - Browse Torrents

Made with love by an Extratorrent Fan!